Categories
Category Categories Threads Posts  
Jorma 60v
Jätä viesti!
0 3 3
Threads
There are no threads in this category.
Thread Flag Started By Posts Views Last Post
There are no threads in this category.
There are no threads in this category.

Latauskuva cd soittimessa

// Generated by cue2toc 0.4
// Report bugs to <dermatsch@gmx.de>
CD_DA
CD_TEXT {
    LANGUAGE_MAP {
	0 : EN
    }
    LANGUAGE 0 {
	TITLE "jorma60vkk"
    }
}

TRACK AUDIO
    CD_TEXT {
	LANGUAGE 0 {
	    TITLE "01 Hör mein Bitten"
	}
    }
    AUDIOFILE "/home/paavo/lightscribe/jorma60vkk.bin" 00:00:00 09:53:33

TRACK AUDIO
    CD_TEXT {
	LANGUAGE 0 {
	    TITLE "02 Hän on se kivi"
	}
    }
    AUDIOFILE "/home/paavo/lightscribe/jorma60vkk.bin" 09:53:33 02:12:69

TRACK AUDIO
    CD_TEXT {
	LANGUAGE 0 {
	    TITLE "03 Kaikella on määräaikansa"
	}
    }
    AUDIOFILE "/home/paavo/lightscribe/jorma60vkk.bin" 12:06:27 04:03:34

TRACK AUDIO
    CD_TEXT {
	LANGUAGE 0 {
	    TITLE "04 Ihminen"
	}
    }
    AUDIOFILE "/home/paavo/lightscribe/jorma60vkk.bin" 16:09:61 01:34:03

TRACK AUDIO
    CD_TEXT {
	LANGUAGE 0 {
	    TITLE "05 Paina minut sinetiksi"
	}
    }
    AUDIOFILE "/home/paavo/lightscribe/jorma60vkk.bin" 17:43:64 02:41:53

TRACK AUDIO
    CD_TEXT {
	LANGUAGE 0 {
	    TITLE "06 Pater Noster"
	}
    }
    AUDIOFILE "/home/paavo/lightscribe/jorma60vkk.bin" 20:25:42 04:29:19

TRACK AUDIO
    CD_TEXT {
	LANGUAGE 0 {
	    TITLE "07 Deep Peace"
	}
    }
    AUDIOFILE "/home/paavo/lightscribe/jorma60vkk.bin" 24:54:61 02:08:25

TRACK AUDIO
    CD_TEXT {
	LANGUAGE 0 {
	    TITLE "08 Herra"
	}
    }
    AUDIOFILE "/home/paavo/lightscribe/jorma60vkk.bin" 27:03:11 04:32:26

TRACK AUDIO
    CD_TEXT {
	LANGUAGE 0 {
	    TITLE "09 Piae Jesu"
	}
    }
    AUDIOFILE "/home/paavo/lightscribe/jorma60vkk.bin" 31:35:37 03:28:52

TRACK AUDIO
    CD_TEXT {
	LANGUAGE 0 {
	    TITLE "10 Vierne - Kyrie"
	}
    }
    AUDIOFILE "/home/paavo/lightscribe/jorma60vkk.bin" 35:04:14 05:10:70

TRACK AUDIO
    CD_TEXT {
	LANGUAGE 0 {
	    TITLE "11 Vierne - Gloria"
	}
    }
    AUDIOFILE "/home/paavo/lightscribe/jorma60vkk.bin" 40:15:09 01:47:73

TRACK AUDIO
    CD_TEXT {
	LANGUAGE 0 {
	    TITLE "12 Vierne - Domine"
	}
    }
    AUDIOFILE "/home/paavo/lightscribe/jorma60vkk.bin" 42:03:07 03:57:30

TRACK AUDIO
    CD_TEXT {
	LANGUAGE 0 {
	    TITLE "13 Vierne - Quoniam"
	}
    }
    AUDIOFILE "/home/paavo/lightscribe/jorma60vkk.bin" 46:00:37 01:46:70

TRACK AUDIO
    CD_TEXT {
	LANGUAGE 0 {
	    TITLE "14 Vierne - Sanctus"
	}
    }
    AUDIOFILE "/home/paavo/lightscribe/jorma60vkk.bin" 47:47:32 02:29:49

TRACK AUDIO
    CD_TEXT {
	LANGUAGE 0 {
	    TITLE "15 Vierne - Benedictus"
	}
    }
    AUDIOFILE "/home/paavo/lightscribe/jorma60vkk.bin" 50:17:06 02:56:74

TRACK AUDIO
    CD_TEXT {
	LANGUAGE 0 {
	    TITLE "16 Vierne - Agnus"
	}
    }
    AUDIOFILE "/home/paavo/lightscribe/jorma60vkk.bin" 53:14:05 04:03:57

TRACK AUDIO
    CD_TEXT {
	LANGUAGE 0 {
	    TITLE "17 O GroBe Lieb"
	}
    }
    AUDIOFILE "/home/paavo/lightscribe/jorma60vkk.bin" 57:17:62 00:46:12

TRACK AUDIO
    CD_TEXT {
	LANGUAGE 0 {
	    TITLE "18 Dein Will"
	}
    }
    AUDIOFILE "/home/paavo/lightscribe/jorma60vkk.bin" 58:03:74 00:47:58

TRACK AUDIO
    CD_TEXT {
	LANGUAGE 0 {
	    TITLE "19 Wer hat"
	}
    }
    AUDIOFILE "/home/paavo/lightscribe/jorma60vkk.bin" 58:51:57 01:38:57

TRACK AUDIO
    CD_TEXT {
	LANGUAGE 0 {
	    TITLE "20. Ach Herr"
	}
    }
    AUDIOFILE "/home/paavo/lightscribe/jorma60vkk.bin" 60:30:39 02:34:71

TRACK AUDIO
    CD_TEXT {
	LANGUAGE 0 {
	    TITLE "21 Petrus"
	}
    }
    AUDIOFILE "/home/paavo/lightscribe/jorma60vkk.bin" 63:05:35 01:08:40

TRACK AUDIO
    CD_TEXT {
	LANGUAGE 0 {
	    TITLE "22 Christus"
	}
    }
    AUDIOFILE "/home/paavo/lightscribe/jorma60vkk.bin" 64:14:00 00:59:24

TRACK AUDIO
    CD_TEXT {
	LANGUAGE 0 {
	    TITLE "23 Ach groBer"
	}
    }
    AUDIOFILE "/home/paavo/lightscribe/jorma60vkk.bin" 65:13:24 01:28:62

TRACK AUDIO
    CD_TEXT {
	LANGUAGE 0 {
	    TITLE "24 Durch dein Gefängnis"
	}
    }
    AUDIOFILE "/home/paavo/lightscribe/jorma60vkk.bin" 66:42:11 00:50:42

TRACK AUDIO
    CD_TEXT {
	LANGUAGE 0 {
	    TITLE "25 In meines"
	}
    }
    AUDIOFILE "/home/paavo/lightscribe/jorma60vkk.bin" 67:32:53 00:58:44

TRACK AUDIO
    CD_TEXT {
	LANGUAGE 0 {
	    TITLE "28 Er nahm"
	}
    }
    AUDIOFILE "/home/paavo/lightscribe/jorma60vkk.bin" 68:31:22 01:01:52

TRACK AUDIO
    CD_TEXT {
	LANGUAGE 0 {
	    TITLE "27 O hilf"
	}
    }
    AUDIOFILE "/home/paavo/lightscribe/jorma60vkk.bin" 69:32:74 01:02:33

TRACK AUDIO
    CD_TEXT {
	LANGUAGE 0 {
	    TITLE "28 Ruht wohl"
	}
    }
    AUDIOFILE "/home/paavo/lightscribe/jorma60vkk.bin" 70:35:32 06:38:02

TRACK AUDIO
    CD_TEXT {
	LANGUAGE 0 {
	    TITLE "29 Ach Herr"
	}
    }
    AUDIOFILE "/home/paavo/lightscribe/jorma60vkk.bin" 77:13:34